[Login] or [Signup]


Warning! Use a VPN When Downloading Torrents!
Your IP Address is .   Location is
Your Internet Provider is tracking your torrent activity!  Hide your IP ADDRESS with a VPN!
We strongly recommend using Trust.Zone VPN to anonymize your torrenting. It's FREE!
Get VPN Now for FREE!
First Cams

Xvid/x264



Non-English

Loading...

Agatha.and.the.Truth.of.Murder.2018.HDRip.XviD.AC3.LLG


Complete Name :Agatha.and.the.Truth.of.Murder.2018.HDRip.XviD.AC3.LLG
Download torrent:    Agatha.and.the.Truth.of.Murder.2018.HDRip.XviD.AC3.LLG.torrent
Info Hash:f1dd965296c0dd5064c9d8f6bf19b60f1d479b50
Category:Movies  > Divx/Xvid
Torrent language:English  
Seeds | Leech:6 | 5
Complete: 42
Health:
Total Size:927.30 MB
Downloaded:10 Times
Added By:      LifeLongg
Date Added:11-02-2019 11:49:am | Last Edit:  12-02-2019 10:33:am

 

Main Technical Comments

Quote:



******************************Thumbnail:**********************



******************************Screenshots:********************

Screenshot 1

Screenshot 2

Screenshot 3

Screenshot 4

Screenshot 5

Screenshot 6

Screenshot 7

Screenshot 8

Screenshot 9

Screenshot 0


******************************************************

Agatha.and.the.Truth.of.Murder.2018.HDRip.XviD.AC3.LLG.mp4
Format                                   : MPEG-4
Format profile                           : Base Media
Codec ID                                 : isom (isom/iso2/avc1/mp41)
File size                                : 919 MiB
Duration                                 : 1 h 32 min
Overall bit rate mode                    : Variable
Overall bit rate                         : 1 391 kb/s
Writing application                      : Lavf57.83.100

Video
ID                                       : 1
Format                                   : AVC
Format/Info                              : Advanced Video Codec
Format profile                           : [email protected]
Format settings                          : CABAC / 1 Ref Frames
Format settings, CABAC                   : Yes
Format settings, RefFrames               : 1 frame
Codec ID                                 : avc1
Codec ID/Info                            : Advanced Video Coding
Duration                                 : 1 h 32 min
Bit rate mode                            : Variable
Bit rate                                 : 1 196 kb/s
Maximum bit rate                         : 3 600 kb/s
Width                                    : 720 pixels
Height                                   : 360 pixels
Display aspect ratio                     : 2.000
Frame rate mode                          : Constant
Frame rate                               : 25.000 FPS
Color space                              : YUV
Chroma subsampling                       : 4:2:0
Bit depth                                : 8 bits
Scan type                                : Progressive
Bits/(Pixel*Frame)                       : 0.184
Stream size                              : 790 MiB (86%)
Codec configuration box                  : avcC

Audio
ID                                       : 2
Format                                   : AC-3
Format/Info                              : Audio Coding 3
Commercial name                          : Dolby Digital
Codec ID                                 : ac-3
Duration                                 : 1 h 32 min
Bit rate mode                            : Constant
Bit rate                                 : 192 kb/s
Channel(s)                               : 6 channels
Channel layout                           : L R C LFE Ls Rs
Sampling rate                            : 48.0 kHz
Frame rate                               : 31.250 FPS (1536 SPF)
Bit depth                                : 16 bits
Compression mode                         : Lossy
Stream size                              : 127 MiB (14%)
Service kind                             : Complete Main
Default                                  : Yes
Alternate group                          : 1



********************************************************


........................................................................


Loading...


Trackers:
udp://tracker.openbittorrent.com:80/announce

Agatha.and.the.Truth.of.Murder.2018.HDRip.XviD.AC3.LLG
Files
Agatha.and.the.Truth.of.Murder.2018.HDRip.XviD.AC3.LLG.mp4 --- 919.17 MB
SAMPLE.ts --- 8.13 MB


Similar Torrents
Type Name Size Added S L
Divx/Xvid Agatha.and.the.Truth.of.Murder.2018.HDRip.XviD.AC3...
1.32 GB 2019-01-31 17:34:07 3400 2064
x264 Agatha.And.The.Truth.Of.Murder.2018.HDTV.x264-MTB[...
364.06 MB 2018-12-24 02:06:06 283 25
HD Agatha.and.the.Truth.of.Murder.2018.1080p.NF.WEB-D...
1.38 GB 2019-01-31 16:24:45 170 135
HD Agatha.And.The.Truth.Of.Murder.2018.720p.HDTV.x264...
1,016.56 MB 2018-12-24 02:06:05 130 18
h.264/x264 Agatha.and.the.Truth.of.Murder.2018.HDRip.XviD.AC3...
1.32 GB 2019-01-31 17:05:33 101 31
h.264/x264 Agatha.and.the.Truth.of.Murder.2018.HDRip.AC3.X264...
1.27 GB 2019-01-31 16:29:52 34 41

Comments:
No comments still posted
Loading...
Powered by TT | Page Generated In 0.194952 secs.
| RSS Feed | Feed Info
Max Dyor warms dick inside three hot holes by turns mp4 | The Lost World: Jurassic Park | 15.12.1812:41 Uhr Spider - Man Into The Spider-Verse Soundtrack256 kbit/s 0 / 01.760 Hits VID P2P DDL 0 Kommentare Max Dyor warms dick inside three hot holes by turns mp4 | The Lost World: Jurassic Park | 15.12.1812:41 Uhr Spider - Man Into The Spider-Verse Soundtrack256 kbit/s 0 / 01.760 Hits VID P2P DDL 0 Kommentare
Max Dyor warms dick inside three hot holes by turns mp4 | The Lost World: Jurassic Park | 15.12.1812:41 Uhr Spider - Man Into The Spider-Verse Soundtrack256 kbit/s 0 / 01.760 Hits VID P2P DDL 0 Kommentare