[Login] or [Signup]


Warning! Use a VPN When Downloading Torrents!
Your IP Address is .   Location is
Your Internet Provider is tracking your torrent activity!  Hide your IP ADDRESS with a VPN!
We strongly recommend using Trust.Zone VPN to anonymize your torrenting. It's FREE!
Get VPN Now for FREE!
First Cams

Xvid/x264



Non-English

Loading...

Karma.2019.HDRip.XviD.AC3.LLG


Complete Name :Karma.2019.HDRip.XviD.AC3.LLG
Download torrent:    Karma.2019.HDRip.XviD.AC3.LLG.torrent
Info Hash:81b84a37e43e2e295855c59d789054bc72f650e3
Category:Movies  > Divx/Xvid
Torrent language:English  
Seeds | Leech:15 | 16
Complete: 52
Health:
Total Size:990.65 MB
Downloaded:10 Times
Added By:      LifeLongg
Date Added:12-02-2019 06:37:am | Last Edit:  12-02-2019 07:42:pm

 

IMDB
Karma
Karma Released 10 Jan 2019

Genre Horror, Thriller

Director Wei-Heng Chung

Writer Neng-Ming Chen, Xin-Yi Su

Actors Andy Bian, Daniel Hiu Tung Chan, Jenny Cheng, Kurt Chou

Plot Newbie teacher Ling Shen's first day at school coincides with a student's accidental death at home. As Ling Shen gets dragged into one after another "accidental" brutal deaths, she begins ...

Link http://www.imdb.com/title/tt8594718

Last Updated 16-02-2019 07:51:29
6.2

Votes 5

Main Technical Comments

Quote:



******************************Thumbnail:**********************



******************************Screenshots:********************

Screenshot 1

Screenshot 2

Screenshot 3

Screenshot 4

Screenshot 5

Screenshot 6

Screenshot 7

Screenshot 8

Screenshot 9

Screenshot 0


******************************************************

Karma.2019.HDRip.XviD.AC3.LLG.mp4
Format                                   : MPEG-4
Format profile                           : Base Media
Codec ID                                 : isom (isom/iso2/avc1/mp41)
File size                                : 976 MiB
Duration                                 : 1 h 25 min
Overall bit rate mode                    : Variable
Overall bit rate                         : 1 594 kb/s
Writing application                      : Lavf57.83.100

Video
ID                                       : 1
Format                                   : AVC
Format/Info                              : Advanced Video Codec
Format profile                           : [email protected]
Format settings                          : CABAC / 1 Ref Frames
Format settings, CABAC                   : Yes
Format settings, RefFrames               : 1 frame
Codec ID                                 : avc1
Codec ID/Info                            : Advanced Video Coding
Duration                                 : 1 h 25 min
Bit rate mode                            : Variable
Bit rate                                 : 1 207 kb/s
Maximum bit rate                         : 3 600 kb/s
Width                                    : 720 pixels
Height                                   : 400 pixels
Display aspect ratio                     : 16:9
Frame rate mode                          : Constant
Frame rate                               : 23.976 (23976/1000) FPS
Color space                              : YUV
Chroma subsampling                       : 4:2:0
Bit depth                                : 8 bits
Scan type                                : Progressive
Bits/(Pixel*Frame)                       : 0.175
Stream size                              : 739 MiB (76%)
Codec configuration box                  : avcC

Audio
ID                                       : 2
Format                                   : AC-3
Format/Info                              : Audio Coding 3
Commercial name                          : Dolby Digital
Codec ID                                 : ac-3
Duration                                 : 1 h 25 min
Bit rate mode                            : Constant
Bit rate                                 : 384 kb/s
Channel(s)                               : 6 channels
Channel layout                           : L R C LFE Ls Rs
Sampling rate                            : 48.0 kHz
Frame rate                               : 31.250 FPS (1536 SPF)
Bit depth                                : 16 bits
Compression mode                         : Lossy
Stream size                              : 235 MiB (24%)
Service kind                             : Complete Main
Default                                  : Yes
Alternate group                          : 1



********************************************************


........................................................................


Loading...


Trackers:
udp://tracker.openbittorrent.com:80/announce

Karma.2019.HDRip.XviD.AC3.LLG
Files
Karma.2019.HDRip.XviD.AC3.LLG.mp4 --- 975.83 MB
SAMPLE.ts --- 14.82 MB


Similar Torrents
Type Name Size Added S L
Divx/Xvid Karma.2019.HDRip.XviD.AC3-EVO
1.25 GB 2019-02-10 16:39:55 2413 1906
h.264/x264 Karma.2018.HDRip.AC3.X264-CMRG[EtMovies]
1.19 GB 2019-02-10 17:07:48 113 69
HD Karma.2018.1080p.WEB-DL.DD5.1.H.264-MooMa[EtHD]
3.33 GB 2019-02-10 21:54:58 88 144
h.264/x264 Karma.2019.HDRip.XviD.AC3-EVO[EtMovies]
1.25 GB 2019-02-10 16:05:01 65 24

Comments:
No comments still posted
Loading...
Powered by TT | Page Generated In 0.412499 secs.
| RSS Feed | Feed Info
Iain Glen | Killing Bites Subtitle Indonesia | Wildlife (2018) Iain Glen | Killing Bites Subtitle Indonesia | Wildlife (2018)
Iain Glen | Killing Bites Subtitle Indonesia | Wildlife (2018)