[Login] or [Signup]


Warning! Use a VPN When Downloading Torrents!
Your IP Address is .   Location is
Your Internet Provider is tracking your torrent activity!  Hide your IP ADDRESS with a VPN!
We strongly recommend using Trust.Zone VPN to anonymize your torrenting. It's FREE!
Get VPN Now for FREE!
First Cams

Xvid/x264



Non-English

Loading...

18+.The.Axiom.2019.HDRip.XviD.AC3.LLG


Complete Name :18+.The.Axiom.2019.HDRip.XviD.AC3.LLG
Download torrent:    18+.The.Axiom.2019.HDRip.XviD.AC3.LLG.torrent
Info Hash:c2191484f3f0e6e877324f3a4ed5568c586edc51
Category:Movies  > Divx/Xvid
Torrent language:English  
Seeds | Leech:20 | 27
Complete: 104
Health:
Total Size:1.10 GB
Downloaded:12 Times
Added By:      LifeLongg
Date Added:12-02-2019 08:12:am | Last Edit:  12-02-2019 08:44:pm

 

Main Technical Comments

Quote:



******************************Thumbnail:**********************



******************************Screenshots:********************

Screenshot 1

Screenshot 2

Screenshot 3

Screenshot 4

Screenshot 5

Screenshot 6

Screenshot 7

Screenshot 8

Screenshot 9

Screenshot 0


******************************************************

18+.The.Axiom.2019.HDRip.XviD.AC3.LLG.mp4
Format                                   : MPEG-4
Format profile                           : Base Media
Codec ID                                 : isom (isom/iso2/avc1/mp41)
File size                                : 1.09 GiB
Duration                                 : 1 h 38 min
Overall bit rate mode                    : Variable
Overall bit rate                         : 1 578 kb/s
Writing application                      : Lavf57.83.100

Video
ID                                       : 1
Format                                   : AVC
Format/Info                              : Advanced Video Codec
Format profile                           : [email protected]
Format settings                          : CABAC / 1 Ref Frames
Format settings, CABAC                   : Yes
Format settings, RefFrames               : 1 frame
Codec ID                                 : avc1
Codec ID/Info                            : Advanced Video Coding
Duration                                 : 1 h 38 min
Bit rate mode                            : Variable
Bit rate                                 : 1 191 kb/s
Maximum bit rate                         : 3 600 kb/s
Width                                    : 720 pixels
Height                                   : 304 pixels
Display aspect ratio                     : 2.35:1
Frame rate mode                          : Constant
Frame rate                               : 23.976 (23976/1000) FPS
Color space                              : YUV
Chroma subsampling                       : 4:2:0
Bit depth                                : 8 bits
Scan type                                : Progressive
Bits/(Pixel*Frame)                       : 0.227
Stream size                              : 841 MiB (75%)
Codec configuration box                  : avcC

Audio
ID                                       : 2
Format                                   : AC-3
Format/Info                              : Audio Coding 3
Commercial name                          : Dolby Digital
Codec ID                                 : ac-3
Duration                                 : 1 h 38 min
Bit rate mode                            : Constant
Bit rate                                 : 384 kb/s
Channel(s)                               : 6 channels
Channel layout                           : L R C LFE Ls Rs
Sampling rate                            : 48.0 kHz
Frame rate                               : 31.250 FPS (1536 SPF)
Bit depth                                : 16 bits
Compression mode                         : Lossy
Stream size                              : 271 MiB (24%)
Service kind                             : Complete Main
Default                                  : Yes
Alternate group                          : 1




********************************************************


........................................................................


Loading...


Trackers:
udp://tracker.openbittorrent.com:80/announce

18+.The.Axiom.2019.HDRip.XviD.AC3.LLG
Files
18+.The.Axiom.2019.HDRip.XviD.AC3.LLG.mp4 --- 1.09 GB
SAMPLE.ts --- 13.22 MB


Similar Torrents
Type Name Size Added S L
h.264/x264 18+ The Last Warrior 2018 UNCENSORED Movies BRRip ...
848.28 MB 2018-08-07 08:39:34 1067 270
Divx/Xvid 18+.The.Female.Brain.2018.BRRip.XviD.AC3.LLG
1.03 GB 2018-11-05 15:05:49 765 383
HD 18+ The Big Take 2018 UNCENSORED Movies 720p HDRip...
960.86 MB 2018-09-05 06:22:49 670 314
HD 18+ The Second 2018 UNCENSORED Movies HDRip x264 5...
848.63 MB 2018-08-01 09:35:26 572 263
HD 18+ The Honey Killer 2018 UNCENSORED Movies 720p H...
705.59 MB 2018-07-18 06:51:11 572 301
h.264/x264 18+ The Barn 2018 UNCENSORED Movies BRRip x264 AAC...
706.89 MB 2018-08-04 04:38:55 524 168
HD 18+ The Krays Dead Man Walking 2018 UNCENSORED Mov...
849.22 MB 2018-09-10 20:09:27 513 465
Divx/Xvid 18+.The.Cakemaker.2018.BDRip.XviD.AC3.LLG
1.06 GB 2018-10-29 20:21:50 472 251
HD 18+ The Happy Prince 2018 UNCENSORED Movies 720p H...
806.96 MB 2018-10-08 08:29:47 430 278
HD 18+ The Mumbai Siege 4 Days Of Terror 2018 UNCENSO...
1.10 GB 2018-09-24 08:26:17 428 209

Comments:
No comments still posted
Loading...
Powered by TT | Page Generated In 0.103716 secs.
| RSS Feed | Feed Info
Dragon Ball Z - Guerreiros Z VS Android 13 | Plus Live Shows | discount torrent Dragon Ball Z - Guerreiros Z VS Android 13 | Plus Live Shows | discount torrent
Dragon Ball Z - Guerreiros Z VS Android 13 | Plus Live Shows | discount torrent